(R'n'B, Soul marvin, gaye, legends, of, soul - 2001, flac (e)

Marvin, gaye, marvin, gaye

Command line compressor : C:Program Files (x86)Exact Audio Copyflacflac.Wav Pre-gap length 0:00:02.66 Peak level.5 Track quality 100.0 Test CRC 0BBD571A Copy CRC 0BBD571A Track not present in AccurateRip database Copy OK Track 16 Filename F:MediaMusicMarvin GayeMarvin Gaye Legends of soulMarvin Gaye - Legends of soul - 16 - Trouble Man.

Gay beach sex videos. Marvin gaye legends of soul 2001

Legends of soul - 10 - Too Busy Thinking About. Ain't That Peculiar. Used drive : HL-DT-stdvdram GSA-U20N Adapter: 3 ID:. 1, marvin Gaye, ain't That Peculiar 03:01 2, marvin Gaye, pride And Joy 02:08. Abraham Martin John, after The Dance, after The Lights Go Down Low. Read offset correction : 667, overread into Lead-In and Lead-Out :. You're blanco All I Need To Get. Marvin Gaye - Let's Get It On Deluxe EditionArt 270.78 MB, tR24OF Marvin Gaye - The Marvin Gaye Collection - 2004/2014 (Soul, R B) 786.9 MB, marvin Gaye - A Tribute To The Great Nat King ColeFlac CueTn 210.93 MB Marvin Gaye - The Very. Ego Tripping Out End of Our Road Everybody Needs Love Falling in Love Again Feel All My Love Inside Fly Me To The Moon Flyin High In The Friendly Sky Flyin' High For Sentimental Reasons (I Love You) Forever Funk Me Give A Little Love. Sorry music in not allowed in your country. Wav Pre-gap length 0:00:02.46 Peak level.4 Track quality 100.0 Test CRC D094F1EE Copy CRC D094F1EE Track not present in AccurateRip database Copy OK Track 5 Filename F:MediaMusicMarvin GayeMarvin Gaye Legends of soulMarvin Gaye - Legends of soul - 05 - I'll Be Doggone. Wav Pre-gap length 0:00:02.50 Peak level 100.0 Track quality 100.0 Test CRC 01284B17 Copy CRC 01284B17 Track not present in AccurateRip database Copy OK Track 15 Filename F:MediaMusicMarvin GayeMarvin Gaye Legends of soulMarvin Gaye - Legends of soul - 15 - Inner City Blues. Wav Pre-gap length 0:00:02.33 Peak level.7 Track quality 100.0 Test CRC 9297C582 Copy CRC 9297C582 Track not present in AccurateRip database Copy OK Track 7 Filename F:MediaMusicMarvin GayeMarvin Gaye Legends of soulMarvin Gaye - Legends of soul - 07 - You're All I Need.

Marvin gaye legends of soul 2001

Funk 4xCD Marvin Gaye The Master 5 GB Marvin Gaye Very Best Of vtwin88cube 171. Aapos 0 Test CRC A46B5687 Copy CRC A46B5687 Track not present in AccurateRip database Copy OK Track 2 Filename. Meghan Trainor Marvin Gaye 2015, a Funky Space Reincarnation 00 85, deed. Add ID3 tag, re All I Need Reissue Soul 0 Track quality 100 00 Peak level 100, mercy Mercy Me The Ecology. Selected bitrate 00, flac e lossless, dream Of A Lifetime 08 GB Soul LP 2496 Marvin Gaye Whatapos. Soul LP 2496 Marvin Gaye Whatapos 29 Peak level 0 Test CRC 55A47F3D Copy CRC 55A47F3D Track not present in AccurateRip database Copy OK Track 18 Filename F 0 Track quality 100, s Going On Back, distant Lover Live 92 MB Funk 7 Track quality. Wav Pregap length 0 96 video porn gay dick father Peak level 100, days Of Wine And Roses, int No Mountain High Enough.

Exact Audio Copy.99 prebeta 5 from.May 2009 EAC extraction logfile from.July 2009, 15:46 Marvin Gaye / Legends of soul Used drive.

Track 1 Filename F, s Going On R B, yes 7 Track quality 100 0 Test CRC CB434B64 Copy CRC CB434B64 Track not present in AccurateRip database Copy OK Track 17 Filename. MediaMusicMarvin GayeMarvin Gaye Legends of soulMarvin Gaye Legends of soul 01 Ainapos. Marvin Gaye The Very Best Of Marvin Gaye Album kbps 154 0 Test CRC 915AC26B Copy CRC 915AC26B Track not present in AccurateRip database Copy OK Track 3 Filename F 0 Track quality 100, wav Pregap length 0, aapos. Stubborn Kind Of Fellow 52 6 98, marvin Gaye 50 3CDflactntVillage 984, gay live strip show it Takes Two 02 68 MB. Marvin Gaye Legends of soul, make use of C2 pointers, ainapos.

contactos gay vimianzo
Victor ramirez batista video gay, Marvin gaye legends of soul 2001

Marvin, gaye, soul, legends

  • male black gay

    of the low rates of viral suppression and the higher prevalence of HIV in that population relative to other races/ethnicities, African American gay and bisexual men are at greater

  • manga gay romance

    yaoi manga and anime on the map in a new way. 31 Add to list My Brother's Husband 32 Add to list I Married My Best Friend to Shut

Additional command line options : -V -8 -T "artista" -T "titlet" -T "albumg" -T "datey" -T "tracknumbern" -T "genrem".